TGS Forum
Hello Guest,

You are currently viewing our boards as a guest, which gives you limited access to view most discussions and access our other features.

By joining this community for FREE, you will have access to post topics, communicate privately with other members (PM), respond to polls, upload content, & many other special features.

Registration is fast, simple & absolutely free, so please, join our community today!


 
PortalHomeFAQRegisterLog in

Share | 
 

 [LEAKED PRINT] JOHNY ENGLISH REBORN (FULL MOVIE)

Go down 
AuthorMessage
ungli
Moderator
Moderator
avatar

Points : 497
Posts : 222
Join date : 2011-04-05
Age : 27

PostSubject: [LEAKED PRINT] JOHNY ENGLISH REBORN (FULL MOVIE)   Sat Oct 01, 2011 10:29 am



Genre:Adventure | Comedy | Thriller
Language:English
IMDb:http://www.imdb.com/title/tt1634122/
Source:RELiZLAB/FURY Thanks!

Format : MPEG-4
Format profile : Base Media
Codec ID : isom
File size : 1.16 GiB
Duration : 1h 35mn
Overall bit rate : 1 735 Kbps

Video
ID : 1
Format : AVC
Format/Info : Advanced Video Codec
Format profile : High@L4.1
Format settings, CABAC : Yes
Format settings, ReFrames : 3 frames
Format settings, GOP : N=1
Codec ID : avc1
Codec ID/Info : Advanced Video Coding
Duration : 1h 35mn
Bit rate mode : Variable
Bit rate : 1 500 Kbps
Maximum bit rate : 5 219 Kbps
Width : 672 pixels
Height : 280 pixels
Display aspect ratio : 2.40:1
Frame rate mode : Constant
Frame rate : 25.000 fps
Color space : YUV
Chroma subsampling : 4:2:0
Bit depth : 8 bits
Scan type : Progressive
Bits/(Pixel*Frame) : 0.319
Stream size : 1.00 GiB (87%)
Writing library : x264


Audio
ID : 2
Format : AAC
Format/Info : Advanced Audio Codec
Format version : Version 4
Format profile : LC
Format settings, SBR : No
Codec ID : 40
Duration : 1h 35mn
Bit rate mode : Variable
Bit rate : 224 Kbps
Maximum bit rate : 275 Kbps
Channel(s) : 2 channels
Channel positions : Front: L R
Sampling rate : 48.0 KHz
Stream size : 153 MiB (13%)

Plot:
Johnny English goes up against international assassins hunting down the Chinese premier WTF

TRAILER wave

[You must be registered and logged in to see this link.]










DOWNLOAD TORRENT


DIRECT AND RESUMABLE DOWNLOAD OMG

PLEASE USE INTERNET DOWNLOAD MANAGER FOR DIRECT LINKS .. topicsucks

thanks
Back to top Go down
BestGeeK
Global Moderator
Global Moderator
avatar

Points : 186
Posts : 128
Join date : 2011-04-05
Age : 30
Location : Hyderabad
OS Used : Windows 7, Windows 8 Dev Preview
Mobile : Nokia 5230, iPhone 4, Blackberry 9930, Galaxy S2, HTC HD7
Browser : Opera

PostSubject: Re: [LEAKED PRINT] JOHNY ENGLISH REBORN (FULL MOVIE)   Sat Oct 01, 2011 3:22 pm

Already seen the movie. Btw one correction, it's not actually a leaked print but it's regular one. Released early in Russia, from where it's get distributed over internet.

__________________________________________________
Life's Game, Play ON !!
Back to top Go down
http://bikasv.wordpress.com/
 
[LEAKED PRINT] JOHNY ENGLISH REBORN (FULL MOVIE)
Back to top 
Page 1 of 1

Permissions in this forum:You cannot reply to topics in this forum
TGS Forum :: Multimedia :: Movies & Videos-
Jump to:  
Free forum | © phpBB | Free forum support | Contact | Report an abuse | Free forum